Free download software » Movies » Buddy Guy - Front And Center (2013) [HDTV 1080i]

Buddy Guy - Front And Center (2013) [HDTV 1080i]

 (Votes #: 0)
CategoryMovies Date17-08-2015, 06:30


Buddy Guy - Front And Center (2013) [HDTV 1080i]

Buddy Guy - Front And Center (2013)
TS, MPEG-2, 1920x1080i, 29.970 fps, 13.3 Mbps | DD, 2.0, 128 kbps
Blues | 00:54:40 | ~ 5,67 Gb

- Buddy Guy celebrates his 77th birthday with Gary Clark Jr. and Quinn Sullivan at Iridium Jazz Club in New York City on July 29th, 2013

Wiki | Discogs | All Music
Track List:

01. Meet Me In Chicago
02. Done Got old
03. Messin' With The Kid
04. 74 Years Young
05. Slippin' in
06. Skin Deep
07. Buddy's Blues (Quin Sullivan)
08. Fever
09. Voodoo Child
10. Do your thing
11. Jam ( Gary Clark J.R, Buddy Guy, Quin Sullivan)

General
ID : 1 (0x1)
Complete name : K:Digital DownloadBuddy Guy - Front and Center 2013.ts
Format
: MPEG-TS
File size
: 5.41 GiB
Duration
: 54mn 40s
Overall bit rate mode : Variable
Overall bit rate : 14.2 Mbps

Video
ID : 2048 (0x800)
Menu ID
: 1 (0x1)
Format
: MPEG Video
Format version : Version 2
Format profile : Main@High
Format settings, BVOP : Yes
Format settings, Matrix : Custom
Format settings, GOP : Variable
Format settings, picture structure : Frame
Codec ID
: 2
Duration
: 54mn 40s
Bit rate mode : Variable
Bit rate
: 13.3 Mbps
Maximum bit rate : 65.0 Mbps
Width
: 1 920 pixels
Height
: 1 080 pixels
Display aspect ratio : 16:9
Frame rate
: 29.970 fps
Color space
: YUV
Chroma subsampling

: 4:2:0
Bit depth
: 8 bits
Scan type
: Interlaced
Scan order
: Top Field First
Compression mode : Lossy
Bits/(Pixel*Frame)

: 0.215
Time code of first frame : 00:00:00;00
Time code source : Group of pictures header
GOP, Open/Closed : Open
Stream size
: 5.09 GiB (94%)
GOP, Open/Closed of first frame : Closed

Audio
ID : 2049 (0x801)
Menu ID
: 1 (0x1)
Format
: AC-3
Format/Info
: Audio Coding 3
Mode extension : CM (complete main)
Format settings, Endianness : Big
Codec ID
: 129
Duration
: 54mn 40s
Bit rate mode : Constant
Bit rate
: 128 Kbps
Channel(s)
: 2 channels
Channel positions: Front: L R
Sampling rate : 48.0 KHz
Bit depth
: 16 bits
Compression mode : Lossy
Delay relative to video : 5ms
Stream size
: 50.1 MiB (1%)
Language
: English

Text #1
ID : 2048 (0x800)-CC1
Menu ID
: 1 (0x1)
Format
: EIA-608
Muxing mode
: A/53 / DTVCC Transport
Muxing mode, more info : Muxed in Video #1
Duration
: 54mn 40s
Bit rate mode : Constant
Stream size
: 0.00 Byte (0%)

Text #2
ID : 2048 (0x800)-1
Menu ID
: 1 (0x1)
Format
: EIA-708
Muxing mode
: A/53 / DTVCC Transport
Muxing mode, more info : Muxed in Video #1
Duration
: 54mn 40s
Bit rate mode : Constant
Stream size
: 0.00 Byte (0%)

Buddy Guy - Front And Center (2013) [HDTV 1080i]

Buddy Guy - Front And Center (2013) [HDTV 1080i]

Buddy Guy - Front And Center (2013) [HDTV 1080i]

Buddy Guy - Front And Center (2013) [HDTV 1080i]

Buddy Guy - Front And Center (2013) [HDTV 1080i]

Buddy Guy - Front And Center (2013) [HDTV 1080i]

Buddy Guy - Front And Center (2013) [HDTV 1080i]



DOWNLOAD LINKS:
Buy Premium To Support Me & Get Resumable Support & Max Speed
Rapidgator.net:
5xukf.B.G.F.A.C.2013.HDTV.1080i.part01.rar.html
5xukf.B.G.F.A.C.2013.HDTV.1080i.part02.rar.html
5xukf.B.G.F.A.C.2013.HDTV.1080i.part03.rar.html
5xukf.B.G.F.A.C.2013.HDTV.1080i.part04.rar.html
5xukf.B.G.F.A.C.2013.HDTV.1080i.part05.rar.html
5xukf.B.G.F.A.C.2013.HDTV.1080i.part06.rar.html
5xukf.B.G.F.A.C.2013.HDTV.1080i.part07.rar.html
5xukf.B.G.F.A.C.2013.HDTV.1080i.part08.rar.html
5xukf.B.G.F.A.C.2013.HDTV.1080i.part09.rar.html
5xukf.B.G.F.A.C.2013.HDTV.1080i.part10.rar.html
5xukf.B.G.F.A.C.2013.HDTV.1080i.part11.rar.html
5xukf.B.G.F.A.C.2013.HDTV.1080i.part12.rar.html

Uploaded.net:
5xukf.B.G.F.A.C.2013.HDTV.1080i.part01.rar
5xukf.B.G.F.A.C.2013.HDTV.1080i.part02.rar
5xukf.B.G.F.A.C.2013.HDTV.1080i.part03.rar
5xukf.B.G.F.A.C.2013.HDTV.1080i.part04.rar
5xukf.B.G.F.A.C.2013.HDTV.1080i.part05.rar
5xukf.B.G.F.A.C.2013.HDTV.1080i.part06.rar
5xukf.B.G.F.A.C.2013.HDTV.1080i.part07.rar
5xukf.B.G.F.A.C.2013.HDTV.1080i.part08.rar
5xukf.B.G.F.A.C.2013.HDTV.1080i.part09.rar
5xukf.B.G.F.A.C.2013.HDTV.1080i.part10.rar
5xukf.B.G.F.A.C.2013.HDTV.1080i.part11.rar
5xukf.B.G.F.A.C.2013.HDTV.1080i.part12.rar

Uploadable.ch:
5xukf.B.G.F.A.C.2013.HDTV.1080i.part01.rar
5xukf.B.G.F.A.C.2013.HDTV.1080i.part02.rar
5xukf.B.G.F.A.C.2013.HDTV.1080i.part03.rar
5xukf.B.G.F.A.C.2013.HDTV.1080i.part04.rar
5xukf.B.G.F.A.C.2013.HDTV.1080i.part05.rar
5xukf.B.G.F.A.C.2013.HDTV.1080i.part06.rar
5xukf.B.G.F.A.C.2013.HDTV.1080i.part07.rar
5xukf.B.G.F.A.C.2013.HDTV.1080i.part08.rar
5xukf.B.G.F.A.C.2013.HDTV.1080i.part09.rar
5xukf.B.G.F.A.C.2013.HDTV.1080i.part10.rar
5xukf.B.G.F.A.C.2013.HDTV.1080i.part11.rar
5xukf.B.G.F.A.C.2013.HDTV.1080i.part12.rar
Links are Interchangeable - No Password - Single Extraction

 
 

(Buddy Guy - Front And Center (2013) [HDTV 1080i] Downloads)



Tags: Free Software Buddy Guy - Front And Center (2013) [HDTV 1080i], Software Downloads Buddy Guy - Front And Center (2013) [HDTV 1080i], RapidShare Buddy Guy - Front And Center (2013) [HDTV 1080i]
  • More Info:
Author: mark Views
Dear visitor, you went to the site as unregistered user. We encourage you to register or enter the site under your name.

RSS:

Enter your email address:

Email Subscriptions

Frendly Sites