Free download software » Music » The Beatles - Last Night in Gamburg (1962)

The Beatles - Last Night in Gamburg (1962)

 (Votes #: 0)
CategoryMusic Date4-09-2015, 09:05


The Beatles - Last Night in Gamburg (1962)

The Beatles - Last Night in Gamburg (1962)
EAC | Flac(Image) + Cue + Log & MP3 CBR 320Kbps
2000 | Rockcartoon, RCAR 102 5213 | ~ 390 or 181 Mb | Scans(jpg) -> 40 Mb
Rock / Beat | 5 Bonus Tracks
"The Beatles' December 1962 performances at the Star Club in Hamburg, Germany, have been reissued countless times over the years (in the U.S. as well as Europe). Offering 28 of those performances, Last Night in Hamburg is a German release from 1999..."
The Beatles - Last Night in Gamburg (1962)

The Beatles at Wiki | The Beatles at Discogs | The Beatles at Allmusic

***********

The Beatles - Last Night in Gamburg at Discogs
The Beatles - Last Night in Gamburg (1962):

The Beatles - Last Night in Gamburg (1962)

Tracklist:

01. I Saw Her Standing There (2:35)
02. I'm Gonna Sit Right Down and Cry (Over You) (2:44)
03. Roll over Beethoven (2:13)
04. Hippy Hippy Shake (1:45)
05. Sweet Little Sixteen (2:45)
06. Lend Me Your Comb (1:52)
07. Your Feet's Too Big (2:18)
08. Where Have You Been All My Life (1:45)
09. Twist and Shout (2:04)
10. Mr. Moonlight (2:28)
11. Taste of Honey (1:52)
12. Besame Mucho (2:08)
13. Everybody's Trying to Be My Baby (2:59)
14. Kansas City (2:31)
15. Nothin' Shakin' (But the Leaves on the Trees) (1:29)
16. To Know Her Is to Love Her (3:13)
17. Little Queenie (4:04)
18. Falling in Love Again (2:02)
19. Sheila (1:59)
20. Be-Bop-A-Lula (2:29)
21. Hallelujah, I Love Her So (2:09)
22. Ask Me Why (2:50)
23. Red Sails in the Sunset (2:33)
24. Matchbox (2:38)
25. I'm Talking About You (2:06)
26. I Wish I Could Shimmy Like My Sister Kate (2:15)
27. Long Tall Sally (1:48)
28. I Remember You (1:58)

Bonus:
29. I'll Keep You Satisfied (2:16)
30. Bad To Me (2:08)
31. Cat Call (2:15)
32. I'm In Love (2:14)
33. I Don't Want To See You Again (1:58)

Exact Audio Copy V1.0 beta 3 from 29. August 2011

EAC extraction logfile from 31. August 2015, 15:59

The Beatles / Last Night in Gamburg 1962

Used drive : Optiarc DVD RW AD-7240S Adapter: 3 ID: 0

Read mode : Secure
Utilize accurate stream : Yes
Defeat audio cache : Yes
Make use of C2 pointers : No

Read offset correction

: 48
Overread into Lead-In and Lead-Out : No
Fill up missing offset samples with silence : Yes
Delete leading and trailing silent blocks : No
Null samples used in CRC calculations : Yes
Used interface
: Native Win32 interface for Win NT & 2000
Gap handling
: Appended to previous track

Used output format : User Defined Encoder
Selected bitrate : 1024 kBit/s
Quality : High
Add ID3 tag : No
Command line compressor : C:Program Files (x86)Exact Audio CopyFLACFLAC.EXE
Additional command line options : -10 -V -T "ARTIST=%artist%" -T "ALBUM=%albumtitle%" -T "DATE=%year%" -T "GENRE=%genre%" -T "COMMENT=ripped by oparin1954" %source%

TOC of the extracted CD Track | Start | Length | Start sector | End sector
--1 | 0:00.00 | 2:35.28 | 0 | 11652 2 | 2:35.28 | 2:44.12 | 11653 | 23964 3 | 5:19.40 | 2:13.53 | 23965 | 33992 4 | 7:33.18 | 1:45.57 | 33993 | 41924 5 | 9:19.00 | 2:45.13 | 41925 | 54312 6 | 12:04.13 | 1:52.67 | 54313 | 62779 7 | 13:57.05 | 2:18.13 | 62780 | 73142 8 | 16:15.18 | 1:45.50 | 73143 | 81067 9 | 18:00.68 | 2:04.12 | 81068 | 90379
10 | 20:05.05 | 2:28.43 | 90380 | 101522
11 | 22:33.48 | 1:52.12 | 101523 | 109934
12 | 24:25.60 | 2:08.00 | 109935 | 119534
13 | 26:33.60 | 2:59.45 | 119535 | 133004
14 | 29:33.30 | 2:31.40 | 133005 | 144369
15 | 32:04.70 | 1:29.15 | 144370 | 151059
16 | 33:34.10 | 3:13.05 | 151060 | 165539
17 | 36:47.15 | 4:04.15 | 165540 | 183854
18 | 40:51.30 | 2:02.35 | 183855 | 193039
19 | 42:53.65 | 1:59.30 | 193040 | 201994
20 | 44:53.20 | 2:29.50 | 201995 | 213219
21 | 47:22.70 | 2:09.58 | 213220 | 222952
22 | 49:32.53 | 2:50.00 | 222953 | 235702
23 | 52:22.53 | 2:33.07 | 235703 | 247184
24 | 54:55.60 | 2:38.55 | 247185 | 259089
25 | 57:34.40 | 2:06.45 | 259090 | 268584
26 | 59:41.10 | 2:15.13 | 268585 | 278722
27 | 61:56.23 | 1:48.00 | 278723 | 286822
28 | 63:44.23 | 1:56.36 | 286823 | 295558
29 | 65:40.59 | 2:16.38 | 295559 | 305796
30 | 67:57.22 | 2:08.30 | 305797 | 315426
31 | 70:05.52 | 2:15.52 | 315427 | 325603
32 | 72:21.29 | 2:14.05 | 325604 | 335658
33 | 74:35.34 | 1:58.25 | 335659 | 344533

Track 1 Filename C:Users└ńýŔÝŔ˝˛­Ó˛ţ­DesktopLast Night In Hamburg 19621 I Saw Her Standing There.wav Pre-gap length 0:00:02.00 Peak level 83.2 %
Extraction speed 1.9 X
Track quality 99.9 %
Test CRC 176532B4
Copy CRC 176532B4
Accurately ripped (confidence 1) 5505FCC (AR v1)
Copy OK

Track 2 Filename C:Users└ńýŔÝŔ˝˛­Ó˛ţ­DesktopLast Night In Hamburg 19622 I'M Going To Sit Right Down And Cry.wav Peak level 85.6 %
Extraction speed 2.4 X
Track quality 100.0 %
Test CRC 2BB13378
Copy CRC 2BB13378
Accurately ripped (confidence 1) [22913F16] (AR v1)
Copy OK

Track 3 Filename C:Users└ńýŔÝŔ˝˛­Ó˛ţ­DesktopLast Night In Hamburg 19623 Roll Over Beethoven.wav Peak level 95.1 %
Extraction speed 2.4 X
Track quality 100.0 %
Test CRC 52F57316
Copy CRC 52F57316
Accurately ripped (confidence 1) [A0DEF599] (AR v1)
Copy OK

Track 4 Filename C:Users└ńýŔÝŔ˝˛­Ó˛ţ­DesktopLast Night In Hamburg 19624 The Hippy Shake.wav Peak level 100.0 %
Extraction speed 2.4 X
Track quality 100.0 %
Test CRC BA4C1B11
Copy CRC BA4C1B11
Accurately ripped (confidence 1) [C3703F7D] (AR v1)
Copy OK

Track 5 Filename C:Users└ńýŔÝŔ˝˛­Ó˛ţ­DesktopLast Night In Hamburg 19625 Sweet Little Sixteen.wav Peak level 90.0 %
Extraction speed 2.8 X
Track quality 100.0 %
Test CRC 03E6D111
Copy CRC 03E6D111
Accurately ripped (confidence 1) [03D1CCF8] (AR v1)
Copy OK

Track 6 Filename C:Users└ńýŔÝŔ˝˛­Ó˛ţ­DesktopLast Night In Hamburg 19626 Lend My Your Comb.wav Peak level 86.5 %
Extraction speed 2.1 X
Track quality 99.9 %
Test CRC 93FBB9D1
Copy CRC 93FBB9D1
Accurately ripped (confidence 1) [1B85A1B5] (AR v1)
Copy OK

Track 7 Filename C:Users└ńýŔÝŔ˝˛­Ó˛ţ­DesktopLast Night In Hamburg 19627 Your Feets Too Big.wav Peak level 91.1 %
Extraction speed 2.9 X
Track quality 100.0 %
Test CRC 60409B19
Copy CRC 60409B19
Accurately ripped (confidence 1) [844C22E9] (AR v1)
Copy OK

Track 8 Filename C:Users└ńýŔÝŔ˝˛­Ó˛ţ­DesktopLast Night In Hamburg 19628 Where Have You Been All My Life.wav Peak level 97.8 %
Extraction speed 2.8 X
Track quality 100.0 %
Test CRC 02A22CEA
Copy CRC 02A22CEA
Accurately ripped (confidence 1) [EE7FBECC] (AR v1)
Copy OK

Track 9 Filename C:Users└ńýŔÝŔ˝˛­Ó˛ţ­DesktopLast Night In Hamburg 19629 Twist And Shout.wav Peak level 99.8 %
Extraction speed 2.4 X
Track quality 99.9 %
Test CRC 67CAE81B
Copy CRC 67CAE81B
Accurately ripped (confidence 1) [5EC73A20] (AR v1)
Copy OK

Track 10 Filename C:Users└ńýŔÝŔ˝˛­Ó˛ţ­DesktopLast Night In Hamburg 196210 Mr.Moonlight.wav Peak level 100.0 %
Extraction speed 3.2 X
Track quality 100.0 %
Test CRC 1E764C15
Copy CRC 1E764C15
Accurately ripped (confidence 1) [019558A5] (AR v1)
Copy OK

Track 11 Filename C:Users└ńýŔÝŔ˝˛­Ó˛ţ­DesktopLast Night In Hamburg 196211 A Taste Of Honey.wav Peak level 82.8 %
Extraction speed 3.0 X
Track quality 100.0 %
Test CRC 32034F95
Copy CRC 32034F95
Accurately ripped (confidence 1) [26C41F66] (AR v1)
Copy OK

Track 12 Filename C:Users└ńýŔÝŔ˝˛­Ó˛ţ­DesktopLast Night In Hamburg 196212 Besame Mucho.wav Peak level 95.8 %
Extraction speed 3.2 X
Track quality 100.0 %
Test CRC 124FC045
Copy CRC 124FC045
Accurately ripped (confidence 1) 76A69E1 (AR v1)
Copy OK

Track 13 Filename C:Users└ńýŔÝŔ˝˛­Ó˛ţ­DesktopLast Night In Hamburg 196213 Everybody's Trying To Be My Baby.wav Peak level 95.0 %
Extraction speed 3.1 X
Track quality 99.9 %
Test CRC 5755FFAB
Copy CRC 5755FFAB
Accurately ripped (confidence 1) [3D47F8CA] (AR v1)
Copy OK

Track 14 Filename C:Users└ńýŔÝŔ˝˛­Ó˛ţ­DesktopLast Night In Hamburg 196214 Kansas City.wav Peak level 79.5 %
Extraction speed 3.6 X
Track quality 100.0 %
Test CRC B62BD388
Copy CRC B62BD388
Accurately ripped (confidence 1) [448D9051] (AR v1)
Copy OK

Track 15 Filename C:Users└ńýŔÝŔ˝˛­Ó˛ţ­DesktopLast Night In Hamburg 196215 Nothin' Shakin'.wav Peak level 93.3 %
Extraction speed 3.1 X
Track quality 100.0 %
Test CRC DF1EBF84
Copy CRC DF1EBF84
Accurately ripped (confidence 1) [D93B0716] (AR v1)
Copy OK

Track 16 Filename C:Users└ńýŔÝŔ˝˛­Ó˛ţ­DesktopLast Night In Hamburg 196216 To Know Her Is To Love Her.wav Peak level 95.7 %
Extraction speed 3.8 X
Track quality 100.0 %
Test CRC 42806754
Copy CRC 42806754
Accurately ripped (confidence 1) [4CD679C2] (AR v1)
Copy OK

Track 17 Filename C:Users└ńýŔÝŔ˝˛­Ó˛ţ­DesktopLast Night In Hamburg 196217 Little Queenie.wav Peak level 94.3 %
Extraction speed 4.2 X
Track quality 100.0 %
Test CRC 1316072F
Copy CRC 1316072F
Accurately ripped (confidence 1) [FFC24FEF] (AR v1)
Copy OK

Track 18 Filename C:Users└ńýŔÝŔ˝˛­Ó˛ţ­DesktopLast Night In Hamburg 196218 Falling In Love Again.wav Peak level 97.4 %
Extraction speed 3.0 X
Track quality 99.9 %
Test CRC FF345CF8
Copy CRC FF345CF8
Accurately ripped (confidence 1) [38D1060A] (AR v1)
Copy OK

Track 19 Filename C:Users└ńýŔÝŔ˝˛­Ó˛ţ­DesktopLast Night In Hamburg 196219 Sheila.wav Peak level 98.3 %
Extraction speed 3.8 X
Track quality 100.0 %
Test CRC 5600B89D
Copy CRC 5600B89D
Accurately ripped (confidence 1) A8EC90A (AR v1)
Copy OK

Track 20 Filename C:Users└ńýŔÝŔ˝˛­Ó˛ţ­DesktopLast Night In Hamburg 196220 Be-Bop-A-Lula.wav Peak level 99.2 %
Extraction speed 4.0 X
Track quality 100.0 %
Test CRC 88BFF6EA
Copy CRC 88BFF6EA
Accurately ripped (confidence 1) [D7A38136] (AR v1)
Copy OK

Track 21 Filename C:Users└ńýŔÝŔ˝˛­Ó˛ţ­DesktopLast Night In Hamburg 196221 Hallelujah, I Love Her So.wav Peak level 92.7 %
Extraction speed 3.3 X
Track quality 99.9 %
Test CRC 69A79010
Copy CRC 69A79010
Accurately ripped (confidence 1) [48578C0C] (AR v1)
Copy OK

Track 22 Filename C:Users└ńýŔÝŔ˝˛­Ó˛ţ­DesktopLast Night In Hamburg 196222 Ask Me Why.wav Peak level 100.0 %
Extraction speed 3.7 X
Track quality 99.9 %
Test CRC 101E16EE
Copy CRC 101E16EE
Accurately ripped (confidence 1) [85A4EB3B] (AR v1)
Copy OK

Track 23 Filename C:Users└ńýŔÝŔ˝˛­Ó˛ţ­DesktopLast Night In Hamburg 196223 Red Sails In The Sunset.wav Peak level 97.2 %
Extraction speed 4.3 X
Track quality 100.0 %
Test CRC 3DE16491
Copy CRC 3DE16491
Accurately ripped (confidence 1) [890CC7C7] (AR v1)
Copy OK

Track 24 Filename C:Users└ńýŔÝŔ˝˛­Ó˛ţ­DesktopLast Night In Hamburg 196224 Matchbox.wav Peak level 98.2 %
Extraction speed 4.4 X
Track quality 100.0 %
Test CRC 80439270
Copy CRC 80439270
Accurately ripped (confidence 1) [2D0AA607] (AR v1)
Copy OK

Track 25 Filename C:Users└ńýŔÝŔ˝˛­Ó˛ţ­DesktopLast Night In Hamburg 196225 I'M Talking About You.wav Peak level 94.0 %
Extraction speed 4.3 X
Track quality 100.0 %
Test CRC 32BB0946
Copy CRC 32BB0946
Accurately ripped (confidence 1) [9B1B354B] (AR v1)
Copy OK

Track 26 Filename C:Users└ńýŔÝŔ˝˛­Ó˛ţ­DesktopLast Night In Hamburg 196226 I Wish I Could Shimmy Like My Sister Kate.wav Peak level 92.3 %
Extraction speed 4.4 X
Track quality 100.0 %
Test CRC 946089D4
Copy CRC 946089D4
Accurately ripped (confidence 1) [314F729E] (AR v1)
Copy OK

Track 27 Filename C:Users└ńýŔÝŔ˝˛­Ó˛ţ­DesktopLast Night In Hamburg 196227 Long Tall Sally.wav Peak level 93.5 %
Extraction speed 4.3 X
Track quality 100.0 %
Test CRC 797680E0
Copy CRC 797680E0
Accurately ripped (confidence 1) [C357A654] (AR v1)
Copy OK

Track 28 Filename C:Users└ńýŔÝŔ˝˛­Ó˛ţ­DesktopLast Night In Hamburg 196228 I Remember You.wav Peak level 90.9 %
Extraction speed 4.3 X
Track quality 100.0 %
Test CRC 8EE7B7D9
Copy CRC 8EE7B7D9
Accurately ripped (confidence 1) [80EAF936] (AR v1)
Copy OK

Track 29 Filename C:Users└ńýŔÝŔ˝˛­Ó˛ţ­DesktopLast Night In Hamburg 196229 I'll Keep You Satisfied.wav Peak level 98.7 %
Extraction speed 4.6 X
Track quality 100.0 %
Test CRC 6B950F7E
Copy CRC 6B950F7E
Accurately ripped (confidence 1) D3322CA (AR v1)
Copy OK

Track 30 Filename C:Users└ńýŔÝŔ˝˛­Ó˛ţ­DesktopLast Night In Hamburg 196230 Bad To Me.wav Peak level 98.9 %
Extraction speed 4.5 X
Track quality 100.0 %
Test CRC FEEC8B21
Copy CRC FEEC8B21
Accurately ripped (confidence 1) [DA795A19] (AR v1)
Copy OK

Track 31 Filename C:Users└ńýŔÝŔ˝˛­Ó˛ţ­DesktopLast Night In Hamburg 196231 Cat Call.wav Peak level 98.4 %
Extraction speed 4.7 X
Track quality 100.0 %
Test CRC 36B6B3AA
Copy CRC 36B6B3AA
Accurately ripped (confidence 1) [11CD7A08] (AR v1)
Copy OK

Track 32 Filename C:Users└ńýŔÝŔ˝˛­Ó˛ţ­DesktopLast Night In Hamburg 196232 I'm In Love.wav Peak level 98.3 %
Extraction speed 4.7 X
Track quality 100.0 %
Test CRC 16748123
Copy CRC 16748123
Accurately ripped (confidence 1) [1B3E7921] (AR v1)
Copy OK

Track 33 Filename C:Users└ńýŔÝŔ˝˛­Ó˛ţ­DesktopLast Night In Hamburg 196233 I Don't Want To See You Again.wav Peak level 99.0 %
Extraction speed 4.7 X
Track quality 100.0 %
Test CRC A4A1A205
Copy CRC A4A1A205
Accurately ripped (confidence 1) [1B4D6AF2] (AR v1)
Copy OK

All tracks accurately ripped

No errors occurred

End of status report

- CUETools DB Plugin V2.1.3

[CTDB TOCID: YZeaR9QGWlMTvl.5q5oMCisfzBI-] found, Submit result: already submitted
[d6a878a8] (1/1) Accurately ripped

==== Log checksum 5ED2AF1AAD0A6292800C7897C629A56F62422C72697ED68F147620038F036523 ====

foobar2000 1.2.9 / Dynamic Range Meter 1.1.1
log date: 2015-09-01 17:11:29

Analyzed: The Beatles / Last Night in Gamburg 1962

DR Peak RMS Duration Track

DR11 -1.59 dB -14.68 dB 2:35 01-I Saw Her Standing There
DR11 -1.35 dB -13.53 dB 2:44 02-I'M Going To Sit Right Down And Cry
DR11 -0.43 dB -13.05 dB 2:14 03-Roll Over Beethoven
DR11 0.00 dB -12.14 dB 1:46 04-The Hippy Shake
DR11 -0.91 dB -13.52 dB 2:45 05-Sweet Little Sixteen
DR11 -1.25 dB -13.94 dB 1:53 06-Lend My Your Comb
DR11 -0.80 dB -13.48 dB 2:18 07-Your Feets Too Big
DR11 -0.19 dB -12.60 dB 1:46 08-Where Have You Been All My Life
DR11 -0.01 dB -12.56 dB 2:04 09-Twist And Shout
DR11 0.00 dB -12.21 dB 2:29 10-Mr.Moonlight
DR8 -1.63 dB -12.29 dB 1:52 11-A Taste Of Honey
DR11 -0.37 dB -13.18 dB 2:08 12-Besame Mucho
DR11 -0.44 dB -13.82 dB 3:00 13-Everybody's Trying To Be My Baby
DR11 -1.99 dB -14.37 dB 2:32 14-Kansas City
DR9 -0.60 dB -11.59 dB 1:29 15-Nothin' Shakin'
DR10 -0.37 dB -12.77 dB 3:13 16-To Know Her Is To Love Her
DR11 -0.51 dB -12.72 dB 4:04 17-Little Queenie
DR10 -0.23 dB -12.29 dB 2:02 18-Falling In Love Again
DR11 -0.15 dB -13.17 dB 1:59 19-Sheila
DR10 -0.06 dB -11.87 dB 2:30 20-Be-Bop-A-Lula
DR11 -0.66 dB -13.74 dB 2:10 21-Hallelujah, I Love Her So
DR13 0.00 dB -15.97 dB 2:50 22-Ask Me Why
DR11 -0.24 dB -13.23 dB 2:33 23-Red Sails In The Sunset
DR10 -0.15 dB -11.72 dB 2:39 24-Matchbox
DR11 -0.53 dB -13.35 dB 2:07 25-I'M Talking About You
DR11 -0.69 dB -13.00 dB 2:15 26-I Wish I Could Shimmy Like My Sister Kate
DR11 -0.58 dB -12.49 dB 1:48 27-Long Tall Sally
DR11 -0.82 dB -14.04 dB 1:56 28-I Remember You
DR9 -0.11 dB -10.56 dB 2:17 29-I'll Keep You Satisfied
DR8 -0.09 dB -10.05 dB 2:08 30-Bad To Me
DR9 -0.13 dB -11.53 dB 2:16 31-Cat Call
DR10 -0.15 dB -11.73 dB 2:14 32-I'm In Love
DR10 -0.08 dB -11.18 dB 1:58 33-I Don't Want To See You Again

Number of tracks: 33
Official DR value: DR11

Samplerate: 44100 Hz
Channels: 2
Bits per sample: 16
Bitrate: 691 kbps
Codec: FLAC

[CUETools log; Date: 01.09.2015 17:11:56; Version: 2.1.4]
[CTDB TOCID: YZeaR9QGWlMTvl.5q5oMCisfzBI-] found.
Track | CTDB Status
1 | (1/1) Accurately ripped
2 | (1/1) Accurately ripped
3 | (1/1) Accurately ripped
4 | (1/1) Accurately ripped
5 | (1/1) Accurately ripped
6 | (1/1) Accurately ripped
7 | (1/1) Accurately ripped
8 | (1/1) Accurately ripped
9 | (1/1) Accurately ripped
10 | (1/1) Accurately ripped
11 | (1/1) Accurately ripped
12 | (1/1) Accurately ripped
13 | (1/1) Accurately ripped
14 | (1/1) Accurately ripped
15 | (1/1) Accurately ripped
16 | (1/1) Accurately ripped
17 | (1/1) Accurately ripped
18 | (1/1) Accurately ripped
19 | (1/1) Accurately ripped
20 | (1/1) Accurately ripped
21 | (1/1) Accurately ripped
22 | (1/1) Accurately ripped
23 | (1/1) Accurately ripped
24 | (1/1) Accurately ripped
25 | (1/1) Accurately ripped
26 | (1/1) Accurately ripped
27 | (1/1) Accurately ripped
28 | (1/1) Accurately ripped
29 | (1/1) Accurately ripped
30 | (1/1) Accurately ripped
31 | (1/1) Accurately ripped
32 | (1/1) Accurately ripped
33 | (1/1) Accurately ripped
[AccurateRip ID: 005a3584-083c6ad8-1211f121] found.
Track [ CRC | V2 ] Status
01 5505fcc|813cafc3 (1+0/1) Accurately ripped
02 [22913f16|e1ff202c] (1+0/1) Accurately ripped
03 [a0def599|29e9cad6] (1+0/1) Accurately ripped
04 [c3703f7d|256b5c87] (1+0/1) Accurately ripped
05 [03d1ccf8|5b71cfc6] (1+0/1) Accurately ripped
06 [1b85a1b5|7b6ac57d] (1+0/1) Accurately ripped
07 [844c22e9|05622de5] (1+0/1) Accurately ripped
08 [ee7fbecc|56ac25e8] (1+0/1) Accurately ripped
09 [5ec73a20|815566c7] (1+0/1) Accurately ripped
10 [019558a5|f3c5358e] (1+0/1) Accurately ripped
11 [26c41f66|feb0f6a0] (1+0/1) Accurately ripped
12 76a69e1|d18e9131 (1+0/1) Accurately ripped
13 [3d47f8ca|83073935] (1+0/1) Accurately ripped
14 [448d9051|e31ec6af] (1+0/1) Accurately ripped
15 [d93b0716|e5fa0aff] (1+0/1) Accurately ripped
16 [4cd679c2|750e0449] (1+0/1) Accurately ripped
17 [ffc24fef|da79b004] (1+0/1) Accurately ripped
18 [38d1060a|a2bb2798] (1+0/1) Accurately ripped
19 a8ec90a|28e1d7b7 (1+0/1) Accurately ripped
20 [d7a38136|9f8902d3] (1+0/1) Accurately ripped
21 [48578c0c|2a6cddc6] (1+0/1) Accurately ripped
22 [85a4eb3b|dfe9ca7b] (1+0/1) Accurately ripped
23 [890cc7c7|35422411] (1+0/1) Accurately ripped
24 [2d0aa607|d553467b] (1+0/1) Accurately ripped
25 [9b1b354b|6a1103a1] (1+0/1) Accurately ripped
26 [314f729e|197e0ab6] (1+0/1) Accurately ripped
27 [c357a654|8a2fbc3e] (1+0/1) Accurately ripped
28 [80eaf936|91ac1a12] (1+0/1) Accurately ripped
29 d3322ca|6a8e1e98 (1+0/1) Accurately ripped
30 [da795a19|831ab694] (1+0/1) Accurately ripped
31 [11cd7a08|d6293f27] (1+0/1) Accurately ripped
32 [1b3e7921|3b02798a] (1+0/1) Accurately ripped
33 [1b4d6af2|d5376fb7] (1+0/1) Accurately ripped

Track Peak [ CRC32 ] [W/O NULL]
-- 100,0 F1DACDF [3FC5A921]
01 83,2 [176532B4] [63722C9C]
02 85,6 [2BB13378] [4D1B3791]
03 95,1 [52F57316] [C9C7AAC5]
04 100,0 A4C1B11 [1C5D04CC]
05 90,0 [03E6D111] [2F638852]
06 86,5 [93FBB9D1] [8A11E64B]
07 91,1 [60409B19] [E0458A38]
08 97,8 [02A22CEA] [ABAB5872]
09 99,8 [67CAE81B] [9D99FCB3]
10 100,0 [1E764C15] [0F314CE4]
11 82,8 [32034F95] [790631F3]
12 95,8 [124FC045] [302D2F87]
13 95,0 [5755FFAB] [F1C100F6]
14 79,5 62BD388 [5D235B4C]
15 93,3 [DF1EBF84] [6174DCE7]
16 95,7 [42806754] [4CEBA41E]
17 94,3 [1316072F] [7D62D02D]
18 97,4 [FF345CF8] [C23BB948]
19 98,3 [5600B89D] [9717076F]
20 99,2 [88BFF6EA] [125FD668]
21 92,7 [69A79010] 3F8C8FF
22 100,0 [101E16EE] [D31CE6B1]
23 97,2 [3DE16491] [1843E4B0]
24 98,2 [80439270] [3758240C]
25 94,0 [32BB0946] [819097FD]
26 92,3 [946089D4] [AF639640]
27 93,5 [797680E0] [7276DC4B]
28 90,9 [8EE7B7D9] [C8DB401A]
29 98,7 [6B950F7E] [33C41C8D]
30 98,9 [FEEC8B21] [D0B10693]
31 98,4 [36B6B3AA] [6E60825B]
32 98,3 [16748123] [E8E7AB0A]
33 99,0 [A4A1A205] [8A262951]

The Beatles - Last Night in Gamburg (1962)

DOWNLOAD LINKS:
Buy Premium To Support Me & Get Resumable Support & Max Speed
Rapidgator.net:
e7f33.TBeatles62Gamburgflac.part1.rar.html
e7f33.TBeatles62Gamburgflac.part2.rar.html
e7f33.TBeatles62Gamburgmp3320.rar.html
e7f33.TBeatles62GamburgScans.rar.html

Uploaded.net:
e7f33.TBeatles62Gamburgflac.part1.rar
e7f33.TBeatles62Gamburgflac.part2.rar
e7f33.TBeatles62Gamburgmp3320.rar
e7f33.TBeatles62GamburgScans.rar

Nitroflare.com
e7f33.TBeatles62Gamburgflac.part1.rar
e7f33.TBeatles62Gamburgflac.part2.rar
e7f33.TBeatles62Gamburgmp3320.rar
e7f33.TBeatles62GamburgScans.rar

Uploadable.ch:
e7f33.TBeatles62Gamburgflac.part1.rar
e7f33.TBeatles62Gamburgflac.part2.rar
e7f33.TBeatles62Gamburgmp3320.rar
e7f33.TBeatles62GamburgScans.rar
Links are Interchangeable - No Password - Single Extraction

 
 

(The Beatles - Last Night in Gamburg (1962) Downloads)



Tags: Free Software The Beatles - Last Night in Gamburg (1962), Software Downloads The Beatles - Last Night in Gamburg (1962), RapidShare The Beatles - Last Night in Gamburg (1962)
  • More Info:
Author: mark Views
Dear visitor, you went to the site as unregistered user. We encourage you to register or enter the site under your name.

RSS:

Enter your email address:

Email Subscriptions

Frendly Sites